Jump to content

  •  

Search Form

Sorry, nothing found in database
Total results: , Page of
>
<


Photo
MG|FS

Dam Vinh Hung - Tinh Buon Cua H (2014) [FLAC] {MRHQ}




  • You cannot start a new topic
  • Please log in to reply
2 replies to this topic

#1 Offline Phantom_Ghost - Posted 27 March 2014 - 02:06 PM

Phantom_Ghost

    Advanced Member

  • Moderators
  • 1,557 posts
  • 967 topics
3,222
Incredible
  

Đàm Vĩnh Hưng - Tình Buồn Của H (2014) [FLAC] {MRHQ}

 

xx2N8u9.jpg

22dd4e317011189.jpg 5c92c2317011193.jpg 1a8519317011196.jpg 436801317011199.jpg 1bda7c317011205.jpg b94606317011209.jpg cc3424317011212.jpg 3ce2a6317011216.jpg ab6342317011221.jpg f2f7f1317011229.jpg 115e39317011234.jpg ba2a98317011241.jpg f48240317011245.jpg 13b14e317011250.jpg 1f3332317011255.jpg 114338317011261.jpg e1e642317011265.jpg

:info:

Exact Audio Copy V1.0 beta 2 from 29. April 2011

EAC extraction logfile from 26. March 2014, 10:09

Dam Vinh Hung / Tinh Buon Cua H

Used drive  : PIONEER PIONEER - DVD-RO   Adapter: 4  ID: 0

Read mode               : Secure
Utilize accurate stream : Yes
Defeat audio cache      : Yes
Make use of C2 pointers : No

Read offset correction                      : 6
Overread into Lead-In and Lead-Out          : No
Fill up missing offset samples with silence : Yes
Delete leading and trailing silent blocks   : No
Null samples used in CRC calculations       : Yes
Used interface                              : Native Win32 interface for Win NT & 2000
Gap handling                                : Appended to previous track

Used output format              : User Defined Encoder
Selected bitrate                : 768 kBit/s
Quality                         : High
Add ID3 tag                     : No
Command line compressor         : C:\Program Files\Exact Audio Copy\FLAC\FLAC.EXE
Additional command line options : -6 -V -T "ARTIST=%artist%" -T "TITLE=%title%" -T "ALBUM=%albumtitle%" -T "DATE=%year%" -T "TRACKNUMBER=%tracknr%" -T "GENRE=%genre%" -T "COMMENT=%comment%" -T "BAND=%albuminterpret%" -T "COMPOSER=%composer%" %haslyrics%--ta


TOC of the extracted CD

     Track |   Start  |  Length  | Start sector | End sector 
    ---------------------------------------------------------
        1  |  0:00.00 |  4:57.60 |         0    |    22334   
        2  |  4:57.60 |  4:36.32 |     22335    |    43066   
        3  |  9:34.17 |  5:13.16 |     43067    |    66557   
        4  | 14:47.33 |  4:21.28 |     66558    |    86160   
        5  | 19:08.61 |  4:34.34 |     86161    |   106744   
        6  | 23:43.20 |  3:55.47 |    106745    |   124416   
        7  | 27:38.67 |  4:32.36 |    124417    |   144852   
        8  | 32:11.28 |  4:19.06 |    144853    |   164283   
        9  | 36:30.34 |  3:45.45 |    164284    |   181203   
       10  | 40:16.04 |  3:57.19 |    181204    |   198997   
       11  | 44:13.23 |  4:11.46 |    198998    |   217868   
       12  | 48:24.69 |  4:02.71 |    217869    |   236089   
       13  | 52:27.65 |  4:34.52 |    236090    |   256691   
       14  | 57:02.42 |  4:25.40 |    256692    |   276606   


Track  1

     Filename E:\MRHQ\Dam Vinh Hung - Tinh Buon Cua H (2014) [FLAC] {MRHQ}\01 - Tinh Buon Cua H.wav

     Pre-gap length  0:00:02.00

     Peak level 99.8 %
     Extraction speed 59.5 X
     Track quality 99.9 %
     Test CRC 6933957D
     Copy CRC 6933957D
     Copy OK

Track  2

     Filename E:\MRHQ\Dam Vinh Hung - Tinh Buon Cua H (2014) [FLAC] {MRHQ}\02 - Tinh Buon Cua H (Acoustic).wav

     Peak level 99.8 %
     Extraction speed 64.0 X
     Track quality 100.0 %
     Test CRC 58D80524
     Copy CRC 58D80524
     Copy OK

Track  3

     Filename E:\MRHQ\Dam Vinh Hung - Tinh Buon Cua H (2014) [FLAC] {MRHQ}\03 - Hoi Nguoi Tinh.wav

     Peak level 99.7 %
     Extraction speed 55.5 X
     Track quality 100.0 %
     Test CRC 636A30AA
     Copy CRC 636A30AA
     Copy OK

Track  4

     Filename E:\MRHQ\Dam Vinh Hung - Tinh Buon Cua H (2014) [FLAC] {MRHQ}\04 - Chi Con Minh Anh.wav

     Peak level 99.8 %
     Extraction speed 57.5 X
     Track quality 100.0 %
     Test CRC 68220E39
     Copy CRC 68220E39
     Copy OK

Track  5

     Filename E:\MRHQ\Dam Vinh Hung - Tinh Buon Cua H (2014) [FLAC] {MRHQ}\05 - Niem Dau Chon Dau.wav

     Peak level 99.8 %
     Extraction speed 52.1 X
     Track quality 100.0 %
     Test CRC 234A0BBF
     Copy CRC 234A0BBF
     Copy OK

Track  6

     Filename E:\MRHQ\Dam Vinh Hung - Tinh Buon Cua H (2014) [FLAC] {MRHQ}\06 - Tinh Yeu Cua Toi (My Fan).wav

     Peak level 100.0 %
     Extraction speed 49.1 X
     Track quality 100.0 %
     Test CRC 541AF769
     Copy CRC 541AF769
     Copy OK

Track  7

     Filename E:\MRHQ\Dam Vinh Hung - Tinh Buon Cua H (2014) [FLAC] {MRHQ}\07 - Me.wav

     Peak level 99.8 %
     Extraction speed 35.5 X
     Track quality 100.0 %
     Test CRC 5B9BC942
     Copy CRC 5B9BC942
     Copy OK

Track  8

     Filename E:\MRHQ\Dam Vinh Hung - Tinh Buon Cua H (2014) [FLAC] {MRHQ}\08 - Con Yeu.wav

     Peak level 99.8 %
     Extraction speed 68.5 X
     Track quality 100.0 %
     Test CRC CDCDD1C9
     Copy CRC CDCDD1C9
     Copy OK

Track  9

     Filename E:\MRHQ\Dam Vinh Hung - Tinh Buon Cua H (2014) [FLAC] {MRHQ}\09 - Tron Tranh Ky Niem (Remix).wav

     Peak level 99.7 %
     Extraction speed 39.6 X
     Track quality 100.0 %
     Test CRC DD450C55
     Copy CRC DD450C55
     Copy OK

Track 10

     Filename E:\MRHQ\Dam Vinh Hung - Tinh Buon Cua H (2014) [FLAC] {MRHQ}\10 - Tinh Yeu Online (Remix).wav

     Peak level 99.8 %
     Extraction speed 48.3 X
     Track quality 100.0 %
     Test CRC A6A86898
     Copy CRC A6A86898
     Copy OK

Track 11

     Filename E:\MRHQ\Dam Vinh Hung - Tinh Buon Cua H (2014) [FLAC] {MRHQ}\11 - Tinh Buon Cua H (Remix).wav

     Peak level 99.8 %
     Extraction speed 62.0 X
     Track quality 100.0 %
     Test CRC D3307808
     Copy CRC D3307808
     Copy OK

Track 12

     Filename E:\MRHQ\Dam Vinh Hung - Tinh Buon Cua H (2014) [FLAC] {MRHQ}\12 - Chi Con Minh Anh (Remix).wav

     Peak level 99.8 %
     Extraction speed 47.8 X
     Track quality 100.0 %
     Test CRC F33F8EBD
     Copy CRC F33F8EBD
     Copy OK

Track 13

     Filename E:\MRHQ\Dam Vinh Hung - Tinh Buon Cua H (2014) [FLAC] {MRHQ}\13 - Lac Mat Em (Remix).wav

     Peak level 100.0 %
     Extraction speed 50.9 X
     Track quality 100.0 %
     Test CRC 09389AC3
     Copy CRC 09389AC3
     Copy OK

Track 14

     Filename E:\MRHQ\Dam Vinh Hung - Tinh Buon Cua H (2014) [FLAC] {MRHQ}\14 - Tinh Nhat Phai (Remix).wav

     Peak level 99.8 %
     Extraction speed 32.6 X
     Track quality 100.0 %
     Test CRC 883B9F72
     Copy CRC 883B9F72
     Copy OK

No errors occurred

End of status report

==== Log checksum 55F61802F30E1B90E78ABE55FD83E55FA443DE4E3A8AA68C0085700E6C5FAA45 ====

:tracklist:

1. Tình Buồn Của H
02. Tình Buồn Của H (Acoustic)
03. Hỡi Người Tình
04. Chỉ Còn Mình Anh
05. Niềm Đau Chôn Dấu
06. Tình Yêu Của Tôi (My Fan)
07. Mẹ
08. Con Yêu
Bonus:
09. Trốn Tránh Kỷ Niệm (Remix)
10. Tình Yêu Online (Remix)
11. Tình Buồn Của H (Remix)
12. Chỉ Còn Mình Anh (Remix)
13. Lạc Mất Em (Remix)
14. Tình Nhạt Phai (Remix)

:dl:
1 link - 3% Recovery Records

:mega:

PRIVATE CONTENT
This content for backup only. You can view public links below post to download


:pw:

freehd.vn

:uploader:

FHD Uploader Team

Edited by Phantom_Ghost, 27 March 2014 - 02:07 PM.


#2 Online boyp - Posted 27 March 2014 - 02:10 PM

boyp

    Advanced Member

  • Supporter
  • 8,872 posts
  • 1,642 topics
18,368
Someone Ban Him
Public Link :mega:
Hidden Content by Post
You need at least 1 post to view links.


#3 Offline Lão đại - Posted 14 April 2014 - 08:22 PM

Lão đại

    Đã chuyển nhượng cho :apku:

  • Moderators
  • 12,275 posts
  • 2,467 topics
  • LocationHà Nội
23,842
Someone Ban Him

:fs:

http://www.fshare.vn/file/TH4CM3K96T

 


Hướng dẫn Download và Import File ở host Mega.co.nz --> Read here

Khắc phục lỗi khi download thiếu file --> Read here





0 user(s) are reading this topic

0 members, 0 guests, 0 anonymous users