Jump to content

truemate

Members
  • Content Count

    73
  • Joined

  • Last visited

About truemate

  • Rank
    Advanced Member

Recent Profile Visitors

239 profile views
  1. oh screw it... its Language Mix: Korean & English
  2. Sequel to the 2016 South Korean zombie film Train to Busan (2016). https://www.imdb.com/title/tt8850222/ Media Info - File size : 836 MB Duration : 1h 55mn 50sc Source : Train.to.Busan.2.Peninsula.2020.KOREAN.1080p.WEBRip.DD5.1.x264-CM | 4.16 GB Video Format : HEVC Format/Info : High Efficiency Video Coding Width : 1 280 pixels Height : 536 pixels Display aspect ratio : 2.40:1 Frame rate mode : Constant Frame rate : 23.976 (24000/1001) FPS Color space : YUV Chroma subsampling : 4:2:0 Bit depth : 8 bits Default : Yes Forced : No Audio Format : AAC Format/Info : Advanced Audio Codec Channel(s) : 2 channels Language : Korean Default : Yes Forced : No Text #1 Format : UTF-8 Language : English Default : Yes Forced : No Text #2 Format : UTF-8 Language : English Default : No Forced : No Download - 836 MB [Hidden Content]
  3. hey laudi786 your 1080p is 2.09gb and 720p is 2.74gb ? what u sharing ???
  4. abt those other movies ? ,, cant share other site URL.. as its not allowed just google their name.... will get the source bro. btw what abt the issue.. regarding not able to play these files
  5. i cant find any difference in these encoding.. u can see the vid info..can u find any diff ? Complete name : D:\Movies\Frozen II (2019)\Frozen II [2019] 720p HDU-UNiT3D MAIN.mkv Format : Matroska Format version : Version 4 File size : 2.88 GiB Duration : 1 h 43 min Overall bit rate : 3 992 kb/s Encoded date : UTC 2020-02-22 15:45:23 Writing application : mkvmerge v7.9.0 ('Birds') 32bit Writing library : libebml v1.3.1 + libmatroska v1.4.2 Video ID : 1 Format : AVC Format/Info : Advanced Video Codec Format profile : High@L4.1 Format settings : CABAC / 12 Ref Frames Format settings, CABAC : Yes Format settings, Reference : 12 frames Codec ID : V_MPEG4/ISO/AVC Duration : 1 h 43 min Bit rate : 3 350 kb/s Width : 1 280 pixels Height : 536 pixels Display aspect ratio : 2.40:1 Frame rate mode : Constant Frame rate : 23.976 (24000/1001) FPS Color space : YUV Chroma subsampling : 4:2:0 Bit depth : 8 bits Scan type : Progressive Bits/(Pixel*Frame) : 0.204 Stream size : 2.42 GiB (84%) Writing library : x264 core 157 r2969 d4099dd Encoding settings : cabac=1 / ref=12 / deblock=1:-3:-3 / analyse=0x3:0x133 / me=umh / subme=11 / psy=1 / psy_rd=1.03:0.00 / mixed_ref=1 / me_range=64 / chroma_me=1 / trellis=2 / 8x8dct=1 / cqm=0 / deadzone=21,11 / fast_pskip=0 / chroma_qp_offset=-4 / threads=12 / lookahead_threads=3 / sliced_threads=0 / nr=0 / decimate=0 / interlaced=0 / bluray_compat=0 / constrained_intra=0 / bframes=10 / b_pyramid=2 / b_adapt=2 / b_bias=0 / direct=3 / weightb=1 / open_gop=0 / weightp=2 / keyint=240 / keyint_min=23 / scenecut=40 / intra_refresh=0 / rc_lookahead=90 / rc=2pass / mbtree=0 / bitrate=3350 / ratetol=1.0 / qcomp=0.60 / qpmin=0 / qpmax=69 / qpstep=4 / cplxblur=20.0 / qblur=0.5 / vbv_maxrate=62500 / vbv_bufsize=78125 / nal_hrd=none / filler=0 / ip_ratio=1.30 / pb_ratio=1.10 / aq=3:1.00 Language : English Default : Yes Forced : No Color range : Limited Color primaries : BT.709 Transfer characteristics : BT.709 Matrix coefficients : BT.709 Audio ID : 2 Format : AC-3 Format/Info : Audio Coding 3 Commercial name : Dolby Digital Codec ID : A_AC3 Duration : 1 h 43 min Bit rate mode : Constant Bit rate : 640 kb/s Channel(s) : 6 channels Channel layout : L R C LFE Ls Rs Sampling rate : 48.0 kHz Frame rate : 31.250 FPS (1536 SPF) Compression mode : Lossy Stream size : 473 MiB (16%) Language : English Service kind : Complete Main Default : Yes Forced : No
  6. Hey Mr Denni, the first reason is not the issue it can play easily even more that that bit rate vids.. abt 2nd reason, i remux-demux..done everything but same issue web-DL not so clear compare to BD encodes. btw i download Frozen II (2019) m720p Bluray Ac3 x264 - Elite THIS WORKED FOR ME.... YES MY tv ABLE TO PLAY THIS FILE... Complete name : C:\Frozen II (2019) m720p Bluray Ac3 x264 - Elite.mkv Format : Matroska Format version : Version 4 File size : 2.40 GiB Duration : 1 h 43 min Overall bit rate : 3 330 kb/s Encoded date : UTC 2020-02-17 20:17:44 Writing application : mkvmerge v15.0.0 ('Duel with the Devil') 64-bit Writing library : libebml v1.3.5 + libmatroska v1.4.5 Writing frontend : StaxRip v1.7.0.0 Video ID : 1 Format : AVC Format/Info : Advanced Video Codec Format profile : High@L4.1 Format settings : CABAC / 8 Ref Frames Format settings, CABAC : Yes Format settings, Reference : 8 frames Codec ID : V_MPEG4/ISO/AVC Duration : 1 h 43 min Bit rate : 2 588 kb/s Width : 1 280 pixels Height : 536 pixels Display aspect ratio : 2.40:1 Frame rate mode : Constant Frame rate : 23.976 (24000/1001) FPS Color space : YUV Chroma subsampling : 4:2:0 Bit depth : 8 bits Scan type : Progressive Bits/(Pixel*Frame) : 0.157 Stream size : 1.87 GiB (78%) Writing library : x264 core 152 r2851 ba24899 Encoding settings : cabac=1 / ref=8 / deblock=1:-3:-3 / analyse=0x3:0x133 / me=umh / subme=9 / psy=1 / psy_rd=1.00:0.30 / mixed_ref=1 / me_range=24 / chroma_me=1 / trellis=1 / 8x8dct=1 / cqm=0 / deadzone=21,11 / fast_pskip=0 / chroma_qp_offset=-4 / threads=12 / lookahead_threads=1 / sliced_threads=0 / nr=0 / decimate=1 / interlaced=0 / bluray_compat=0 / constrained_intra=0 / bframes=9 / b_pyramid=2 / b_adapt=1 / b_bias=0 / direct=1 / weightb=1 / open_gop=0 / weightp=2 / keyint=250 / keyint_min=23 / scenecut=40 / intra_refresh=0 / rc_lookahead=120 / rc=crf / mbtree=1 / crf=19.0 / qcomp=0.60 / qpmin=10 / qpmax=69 / qpstep=4 / vbv_maxrate=50000 / vbv_bufsize=62500 / crf_max=0.0 / nal_hrd=none / filler=0 / ip_ratio=1.40 / aq=1:1.00 Default : Yes Forced : No Audio ID : 2 Format : AC-3 Format/Info : Audio Coding 3 Commercial name : Dolby Digital Codec ID : A_AC3 Duration : 1 h 43 min Bit rate mode : Constant Bit rate : 640 kb/s Channel(s) : 6 channels Channel layout : L R C LFE Ls Rs Sampling rate : 48.0 kHz Frame rate : 31.250 FPS (1536 SPF) Compression mode : Lossy Stream size : 473 MiB (19%) Language : English Service kind : Complete Main Default : No Forced : No HDU,DiVERSiTY encode not working.. but this elite one worked.. how come.. what diff in this encoded vid ?
  7. playing on LG flat screen tv thru usb slot.... yes it supports Mkv,mp4.avi etc i played all encoded movies what i download from here... every one played well... just this one not able to play.. i even downloaded another encoders rip Frozen II [2019] 720p HDU even that also not able to play... very strange...frozen movie only not able to play
  8. helloo ... Yesterday i have download this vid Frozen 2 2019 m720p BDRip x264 AC3-DiVERSiTY - 2.50 GiB it play smoothly on pc.. But when i put in USB/EXTERNAL hdd AND THAN TRY TO PLAY IT THRU usb ATTACHMENT ON LG FLAT SCREEN ITS NOT able to play.. shows Invalid file... i did every R&D.. like demux and mux it again with mkvmerge... but still nope... all downloaded movies played well on my TV.. but only this one is Issue... Do anyone knows what the cause of this
  9. this is very strange... when i download the file few week back that time it was playing well.. and when i was demuxing all this even that time the original vid file was ok.... just when i finish all this demux stuff and deleted the original file... after that i seen the new merged vid is not working properly :? i am sure something screwed up regarding that AAC audio.. which i convert it from DTS As tday also same thing happen with another vid..Thor Ragnarok... i was inserting an other lang aac file in it and after that vid was playing only till 50min.. i was like WTF... good that i have not deleted the source vid... than i doubt is this because i kept AAC audio file in same folder ??? i just rename that aac file .. and Strange.. the merged new file started working properly.. oooh man what this new hidden aac error is ??? one audio ac3 other aac creates prob... i dont think so as in past it was nothing like that
  10. hello friends, few days back i have download Wall E movie from here WALL-E 2008 720p BluRay DTS-ES x264-ESiR http://freehd.me/diend@n/topic/3015-wall-e-2008-720p-bluray-dts-es-x264-esir/ it have DTS audio which my TV cant play..so i decided to demux it ,reconvert the dts to ac3 with the help of FFmpeg Batch AV Converter 1.6.7... After reconverting the audio i mux it with our fav mkvmerge So this the media info - GeneralUnique ID : 198752881996590011048853744587581812638 (0x958669A6838AF392B05444E3B959EF9E)Complete name : D:\Movies\WALL-E (2008)\WALL-E (2008).mkvFormat : MatroskaFormat version : Version 4File size : 2.91 GiBDuration : 1 h 37 minOverall bit rate : 4 282 kb/sEncoded date : UTC 2019-07-23 16:51:07Writing application : mkvmerge v7.9.0 ('Birds') 32bitWriting library : libebml v1.3.1 + libmatroska v1.4.2 VideoID : 1Format : AVCFormat/Info : Advanced Video CodecFormat profile : High@L4.1Format settings : CABAC / 10 Ref FramesFormat settings, CABAC : YesFormat settings, Reference : 10 framesCodec ID : V_MPEG4/ISO/AVCDuration : 1 h 37 minBit rate : 3 640 kb/sWidth : 1 280 pixelsHeight : 536 pixelsDisplay aspect ratio : 2.40:1Frame rate mode : ConstantFrame rate : 23.976 FPSColor space : YUVChroma subsampling : 4:2:0Bit depth : 8 bitsScan type : ProgressiveBits/(Pixel*Frame) : 0.221Stream size : 2.42 GiB (83%)Writing library : x264 core 65 r1026M 745a48bEncoding settings : cabac=1 / ref=10 / deblock=1:-3:-3 / analyse=0x3:0x133 / me=umh / subme=9 / psy_rd=0.8:0.0 / mixed_ref=1 / me_range=16 / chroma_me=1 / trellis=0 / 8x8dct=1 / cqm=2 / deadzone=21,11 / chroma_qp_offset=-2 / threads=3 / nr=0 / decimate=1 / mbaff=0 / bframes=6 / b_pyramid=1 / b_adapt=2 / b_bias=0 / direct=1 / wpredb=1 / keyint=250 / keyint_min=25 / scenecut=40(pre) / rc=2pass / bitrate=3640 / ratetol=1.0 / qcomp=0.60 / qpmin=9 / qpmax=20 / qpstep=4 / cplxblur=20.0 / qblur=0.5 / ip_ratio=1.40 / pb_ratio=1.30 / aq=1:0.65Default : YesForced : No AudioID : 2Format : AC-3Format/Info : Audio Coding 3Commercial name : Dolby DigitalCodec ID : A_AC3Duration : 1 h 37 minBit rate mode : ConstantBit rate : 640 kb/sChannel(s) : 6 channelsChannel layout : L R C LFE Ls RsSampling rate : 48.0 kHzFrame rate : 31.250 FPS (1536 SPF)Bit depth : 16 bitsCompression mode : LossyStream size : 446 MiB (15%)Service kind : Complete MainDefault : YesForced : No TextID : 3Format : UTF-8Codec ID : S_TEXT/UTF8Codec ID/Info : UTF-8 Plain TextDefault : YesForced : No Now the main prob started after this.... the output file is not playing properly.. it getting stuck in between nor i was able to fast forward...it hangs I decided to demux it with MKVExtractGUI...but nope its not happening as it stop around 45% ---> (49:06min)and gives output vid file of size 1.24gb and audio file of 220mb only. Than i decided let merge it again without demuxing....But that also not happening, below error it showing mkvmerge v7.9.0 ('Birds') 32bit'D:\Movies\WALL-E (2008)\WALL-E (2008).mkv': Using the demultiplexer for the format 'Matroska'.'D:\Movies\WALL-E (2008)\WALL-E (2008).mkv' track 0: Using the output module for the format 'AVC/h.264'.'D:\Movies\WALL-E (2008)\WALL-E (2008).mkv' track 1: Using the output module for the format 'AC3'.'D:\Movies\WALL-E (2008)\WALL-E (2008).mkv' track 2: Using the output module for the format 'text subtitles'.The file 'D:\Movies\WALL-E (2008)\WALL-E.mkv' has been opened for writing.D:\Movies\WALL-E (2008)\WALL-E (2008).mkv: Error in the Matroska file structure at position 1569971920. Resyncing to the next level 1 element.The last timecode processed before the error was encountered was 00:49:06.024000000. ---> (49min)Still resyncing at position 1655899184.Still resyncing at position 1742366777.Still resyncing at position 1828127756.Still resyncing at position 1914265922.Still resyncing at position 2000456082.Still resyncing at position 2086677130.Still resyncing at position 2172405371.Still resyncing at position 2258030223.Still resyncing at position 2343195319.Still resyncing at position 2429032346.Still resyncing at position 2514631533.Still resyncing at position 2600121370.Still resyncing at position 2685131590.Still resyncing at position 2769769709.Still resyncing at position 2856021240.Still resyncing at position 2941712160.Still resyncing at position 3021455344.Still resyncing at position 3104905323.Resync failed: no valid Matroska level 1 element found.The cue entries (the index) are being written...Muxing took 3 minutes 56 seconds. Output vid file was good..but it was duration of only 49:06mins SO WHAT HAPPENING TO THIS FILE AFTER 49:06MINS ???? before all this audio re-convert..demux/mux.. the file was good..this prob only started after i inserted ac3 audio. plz help in this.. i cant download the file again..due to bandwidth limitation :/
×
×
  • Create New...