Jump to content

Search the Community

Showing results for tags 'Fshare'.



More search options

  • Search By Tags

    Type tags separated by commas.
  • Search By Author

Content Type


Forums

  • Khu vực hành chính FreeHD
    • Thông Báo - Annoucements
    • Ý kiến đóng góp - Suggestion
    • Trò Chuyện Linh Tinh - Chit chat Gossip
    • Trash bin
  • Technology Zone - Khu Kỹ Thuật
    • General Guide
    • Hỏi Đáp Chung - Question and Answer
    • Phần Mềm - Software
    • Phụ đề - Thuyết minh
  • Movie News - Tin Tức Phim
    • Thông Tin Điện Ảnh - News
    • Cảm Nhận Phim - Movie Review
  • FreeHD Content
    • Non-HD
    • HDRip
    • miniHD
    • 720p
    • 1080p
    • Complete Blu-ray
    • 4K Content
    • Sport
    • Documentary
    • TV series
    • Anime
    • Request
  • Music Zone
    • Lossy
    • Lossless
    • Music Videos
    • Music Request
  • Members Share - Khu tự do chia sẻ của thành viên
    • DVD - nonHD
    • mini HD
    • 720p - 1080p
    • TV series
    • Full BluRay
    • Music
  • FreeHD Entertainment - Khu giải trí, Thư giãn
  • Trash bin

Find results in...

Find results that contain...


Date Created

  • Start

    End


Last Updated

  • Start

    End


Filter by number of...

Joined

  • Start

    End


Group


AIM


MSN


Website URL


ICQ


Jabber


Location


Interests

Found 55 results

  1. Audio Format : AC-3 Format/Info : Audio Coding 3 Mode extension : CM (complete main) Duration : 2h 54mn Bit rate mode : Constant Bit rate : 640 Kbps Channel(s) : 6 channels Channel positions : Front: L C R, Side: L R, LFE Sampling rate : 48.0 KHz Bit depth : 16 bits Compression mode : Lossy Stream size : 798 MiB (100%) Hidden Content http://www.fshare.vn/folder/TN5MRGTGHT
  2. Download Instruction: Using (LinksVIP Tool v2.2) by LinksVIP Team to get VIP link with highest speed from Vietnamese hosts such as ( Fshare, 4share, Tenlua) Hello everyone, today I will show you how to get a VIP link with highest speed, Using LinksVIP Tool v2.2 & Internet Download Manager, from Vietnamese hosts such as ( Fshare, 4share, Tenlua). Step 1: Download LinksVIP Tool Access: https://linksvip.net/tool.html, Click on or : https://www.fshare.vn/file/MXHARNPEKCRH No installation required, the unzipping password is : linksvip Step 2: Open LinksVIP Tool Step 3: Copy the link Fshare, 4share, Rockets should get links Tool will automatically start link and get links to your Web Browser. Step 4: Ignore ads Step 5: Click Download now After Copy link, IDM will catch max speed link for you immediately. Vietnamese Video Tutorial
  3. Audio Format : AC-3 Format/Info : Audio Coding 3 Mode extension : CM (complete main) Duration : 1h 36mn Bit rate mode : Constant Bit rate : 640 Kbps Channel(s) : 2 channels Channel positions : Front: L R Sampling rate : 48.0 KHz Bit depth : 16 bits Compression mode : Lossy Stream size : 439 MiB (100%) Hidden Content http://www.fshare.vn/folder/TYPZG2YJZTPS: Audio nào bị lệch, anh em báo mình sẽ sửa lại.
  4. Audio Format : AC-3 Format/Info : Audio Coding 3 Mode extension : CM (complete main) Duration : 1h 44mn Bit rate mode : Constant Bit rate : 640 Kbps Channel(s) : 6 channels Channel positions : Front: L C R, Side: L R, LFE Sampling rate : 48.0 KHz Bit depth : 16 bits Compression mode : Lossy Stream size : 476 MiB (100%) Hidden Content http://www.fshare.vn/file/TC61A0X7ST
  5. Reup Audio Format : DTS Format/Info : Digital Theater Systems Duration : 1h 40mn Bit rate mode : Constant Bit rate : 1510 Kbps Channel(s) : 6 channels Channel positions : Front: L C R, Side: L R, LFE Sampling rate : 48.0 KHz Bit depth : 24 bits Compression mode : Lossy Stream size : 1.06 GiB Hidden Content http://www.fshare.vn/folder/T146HZG1KT
  6. Audio Format : AC-3 Format/Info : Audio Coding 3 Mode extension : CM (complete main) Duration : 1h 35mn Bit rate mode : Constant Bit rate : 448 Kbps Channel(s) : 6 channels Channel positions : Front: L C R, Side: L R, LFE Sampling rate : 48.0 KHz Bit depth : 16 bits Compression mode : Lossy Stream size : 306 MiB (100%) Hidden Content http://www.fshare.vn/file/TKF98A6GWT/
  7. Audio Format : AC-3 Format/Info : Audio Coding 3 Mode extension : CM (complete main) Duration : 1h 44mn Bit rate mode : Constant Bit rate : 640 Kbps Channel(s) : 6 channels Channel positions : Front: L C R, Side: L R, LFE Sampling rate : 48.0 KHz Bit depth : 16 bits Compression mode : Lossy Stream size : 480 MiB (100%) Hidden Content http://www.fshare.vn/file/T9K2RBZBGT
  8. General Complete name : D:\Huy.gakon\Brick.Mansions.2014.ViE.mHD.BluRay.DD5.1.x264-EPiK\1_2_audio.ac3 Format : AC-3 Format/Info : Audio Coding 3 File size : 413 MiB Duration : 1h 30mn Overall bit rate mode : Constant Overall bit rate : 640 Kbps Audio Format : AC-3 Format/Info : Audio Coding 3 Mode extension : CM (complete main) Format settings, Endianness : Big Duration : 1h 30mn Bit rate mode : Constant Bit rate : 640 Kbps Channel(s) : 6 channels Channel positions : Front: L C R, Side: L R, LFE Sampling rate : 48.0 KHz Bit depth : 16 bits Compression mode : Lossy Stream size : 413 MiB (100%) http://www.fshare.vn/file/T5VW1FQSGT/Nguồn: HDVNBits.Org
  9. Audio Format : DTS Format/Info : Digital Theater Systems Duration : 1h 35mn Bit rate mode : Constant Bit rate : 1 510 Kbps Channel(s) : 6 channels Channel positions : Front: L C R, Side: L R, LFE Sampling rate : 48.0 KHz Bit depth : 24 bits Compression mode : Lossy Stream size : 1.01 GiB (100%) Title : Sync by Hunggy Hidden Contenthttp://www.fshare.vn/folder/T6GYPXZYRT
  10. Audio Format : DTS Format/Info : Digital Theater Systems Duration : 1h 28mn Bit rate mode : Constant Bit rate : 1 510 Kbps Channel(s) : 6 channels Channel positions : Front: L C R, Side: L R, LFE Sampling rate : 48.0 KHz Bit depth : 24 bits Compression mode : Lossy Stream size : 956 MiB Title : Sync by Hunggy Hidden Contenthttp://www.fshare.vn/folder/T6GYPXZYRT
  11. Get link VIP Fshare nhóm 2014 - TV Downloader - ĐƠN GIẢN - MẠNH MẼ - HIỆU QUẢ Bạn chán ngán vì cảnh nhờ vả get link VIP, giá acc VIP trên page home quá đắt, không add được hàng loạt link vào IDM để cắm máy suốt đêm DL. Với những khó khăn đó, hôm nay mình xin giới thiệu với mọi người chương trình TV Downloader có thể làm tất cả những điều trên.Mình có thể khẳng định với bạn rằng chưa có phần mềm hiện tại nào get VIP có khả năng kết hợp với IDM giúp bạn cắm máy DL suốt ngày đêm. Sau đây, mình xin giới thiệu sơ qua: TV Downloader v1.4 - Get link VIP Fshare - 2014 Yêu cầu cài đặt:Hệ điều hành : Windows.Cài .Net FW 4.0Máy tính kết nối Internet.Chạy bằng quyền user administrator. Tính năng: 3.Phiên bản 1.2:- Thêm tùy chọn context menu giúp việc Add, Delete, Copy link được dễ dàng. - Hạn chế việc trùng phiên đăng nhập giúp get link nhanh chóng. - Có Acc dự phòng nên bạn sẽ luôn get đc Direct link trong TH acc nhóm bận. - Thêm phần IDM Setting giúp tương tác với IDM dễ dàng hơn: 1.Auto add link 2.Auto start download 3.Auto turn off when done 4.Scheduler: Kết hợp với IDM lập lịch DL => như một "BỘ ĐÔI HOÀN HẢO" có thể cắm máy DL suốt đêm ==> Đây là tính năng rất cần thiết cho các bạn DL qua đêm 3.Phiên bản 1.2.2:- Update Get link FS có Password. DEMO1:Sau đây mời các bạn xem video demo một số tính năng : 1.Auto add link 2.Auto start download 3.Auto turn off when done 4.Scheduler[video=youtube;mdfd-IoR7ok] Bảng giá: 20K/60 NGÀY = 333 ĐỒNG/NGÀY 50K/120 NGÀY = 416 ĐỒNG/NGÀY 100K/240 NGÀY = 416 ĐỒNG/NGÀY Hướng dẫn Update phiên bản mới:1. xóa file TV Downloader.exe cũ (chú ý ko xoá file Lic nhé).2. Copy file TV Downloader.exe mới vào3. Done. Hướng dẫn đăng ký:1/ Xóa phiên bản cũ vì bản này mình ko hỗ trợ nữa.2/ Chạy phiên bản v1.2 nó sẽ có form sau: 3/Điền 1, 2, 3, 4, 5 và nhấn Đăng ký.4/Chờ mình reply lại trong mail nhá. Thanh toán:1.Thẻ điện thoại: ViettelMobifoneVinafoneGateVcoin2.Chuyển khoản:Liên hệ qua Yh: mmotoolstore Liên hệ:Gmail:mmotoolstore@gmail.com Yh:mmotoolstoreBlog:http://mmostore.blogspot.com/ Bạn nào chưa tin tưởng có thể sử dụng thử dịch vụ của mình để cảm nhận, thấy ngon thì cmt dùm 1 câu là được Một số cmt của các bạn khi sử dụng demo ở hdvietnam, voz, vnz... Mong bạn hoàn thiện và tiếp tục tinh thần chia sẻ.Chúc bạn sức khỏe, vui vẻ và chia sẻ. he he! 1) Khi add link lấy luôn link trong clipboard (nếu có) giống như fshare tool2) Cho phép copy direct link vào clipboard để có thể dùng cho các tool download khác Bắt link nhanh dễ sợ. Mong thím hỗ trợ dài dài đừng đứt gánh giữa đường như mấy tool khác :pudency: dang sai thu 2 thang voi gia 20k ko qua dat, chat luong on dinh Download:: .NET Framework 4 http://download.microsoft.com/download/9/5/A/95A9616B-7A37-4AF6-BC36-D6EA96C8DAAE/dotNetFx40_Full_x86_x64.exeTVDownloader v1.4.1 PRO http://www.mediafire.com/download/ec53dgrcut9308c/TVDownloader_1.4.1.rar
  12. Audio Format : AC-3 Format/Info : Audio Coding 3 Mode extension : CM (complete main) Duration : 1h 30mn Bit rate mode : Constant Bit rate : 640 Kbps Channel(s) : 6 channels Channel positions : Front: L C R, Side: L R, LFE Sampling rate : 48.0 KHz Bit depth : 16 bits Compression mode : Lossy Stream size : 416 MiB (100%) Hidden Content http://www.fshare.vn/file/TRBRY79C4T
  13. Audio Format : AC-3 Format/Info : Audio Coding 3 Mode extension : CM (complete main) Duration : 2h 36mn Bit rate mode : Constant Bit rate : 640 Kbps Channel(s) : 6 channels Channel positions : Front: L C R, Side: L R, LFE Sampling rate : 48.0 KHz Bit depth : 16 bits Compression mode : Lossy Stream size : 719 MiB (100%) Hidden Content http://www.fshare.vn/folder/T4P0VDRZQT/
  14. Đã fix Audio Format : AC-3 Format/Info : Audio Coding 3 Mode extension : CM (complete main) Duration : 1h 42mn Bit rate mode : Constant Bit rate : 640 Kbps Channel(s) : 6 channels Channel positions : Front: L C R, Side: L R, LFE Sampling rate : 48.0 KHz Bit depth : 16 bits Compression mode : Lossy Stream size : 470 MiB (100%) Hidden Content http://www.fshare.vn/folder/TC5TT0TAGT/
  15. Audio Format : AC-3 Format/Info : Audio Coding 3 Mode extension : CM (complete main) Duration : 2h 48mn Bit rate mode : Constant Bit rate : 640 Kbps Channel(s) : 6 channels Channel positions : Front: L C R, Side: L R, LFE Sampling rate : 48.0 KHz Bit depth : 16 bits Compression mode : Lossy Stream size : 771 MiB (100%) Hidden Content http://www.fshare.vn/folder/TNCP3XWNJT
  16. Audio (thanks nghiad124) Format : DTS Format/Info : Digital Theater Systems Duration : 2h 6mn Bit rate mode : Constant Bit rate : 1 510 Kbps Channel(s) : 6 channels Channel positions : Front: L C R, Side: L R, LFE Sampling rate : 48.0 KHz Bit depth : 24 bits Compression mode : Lossy Stream size : 1.34 GiB (100%) Title : Sync by Hunggy Hidden Contenthttp://www.fshare.vn/folder/T6GYPXZYRT
  17. Một thời gian rất dài không có time để tập trung cho topic này nên đã bị khoá và bị xoá, nay mình tiếp tục khởi động lại dự án này để hỗ trợ những tín đồ đam mê phim ảnh như mình, hi vọng mọi người - nhất là các mạnh thường quân vào ủng hộ cho topic ngày một lớn mạnh. Topic được lập ra để hỗ trợ cho tất cả thành viên của diễn đàn dễ dàng hơn trong việc download với Fshare, hình thức share acc VIP cho nhiều người sử dụng chung tương đối phổ biến nhưng có một bất cập là việc người được share tự ý thay đổi pass mặc định của chủ acc, bên cạnh đó trong một thời điểm chỉ duy nhất một người được sử dụng acc cũng là một cản trở lớn. Fshare Bonus Point là điểm mà uploader được nhận khi dữ liệu của uploader được người khác tải về, với mỗi 1000 điểm một acc Fshare thường sẽ trở thành VIP trong vòng 24 giờ tính từ thời điểm kích hoạt bằng bonus point. Như vậy với Fshare bonus point thì các downloader sẽ dễ dàng hơn trong việc tải các nội dung HD yêu thích của mình mà không gặp phải 02 trở ngại nêu trên khi không có acc VIP để tải file với Fshare. Để được nhận bonus point, các bạn comment vào topic này với nội dung sau: - Nick diễn đàn - Nick Fshare Yêu cầu: Tất cả các thành viên có từ 30post trở lên. Quy định: - Với member thường, sau khi request và được nhận point thì phải chờ 1 ngày sau mới được xin tiếp. Mỗi lần chỉ được nhận 1000p. - Donator và Staff không có giới hạn số ngày chờ để request tiếp và được nhận 2000p mỗi lần. Lưu ý: - Hiệu lực VIP của acc kéo dài trong 24h sau khi đổi point, ví dụ bạn đổi point vào lúc 18g ngày 11/3 thì acc sẽ có hiệu lực VIP với max speed up/down đến 18g ngày 12/3. Các bạn nên gom phim lại một mớ rồi hãy tải cùng lúc cho tiện. - Bạn đã đổi point vào lúc 18g ngày 11/3 như trên, tuy nhiên do quá bận rộn nên mãi đến 17g55 ngày 12/3 mới sực nhớ đến việc phải tải phim, lúc này chỉ còn 5p nữa là hết hiệu lực VIP rồi! Đừng quá lo lắng, cứ việc add phim vào Fshare Tool bởi khi đã add link vào trước thời gian hiệu lực VIP chưa hết thì sau đó nó vẫn up/down max speed bình thường cho đến khi complete, chỉ sau đó bạn add link vào tiếp thì acc đã trở về bình thường nên không max speed nữa. Mọi đóng góp point để hỗ trợ cho topic vui lòng chuyển vào acc Fshare này nhé: hdman891703@yahoo.com Cám ơn sự quan tâm của mọi người! Thân, Hay Tè ------------------------------------------------------------------------------------- Sau đây là các bước hướng dẫn đổi Fshare bonus point để kích hoạt acc VIP: 1/ Click đăng nhập, nếu chưa có acc thì click vào đăng ký để tạo acc mới 2/ Điền username, pass của acc để đăng nhập 3/ Sau khi đã đăng nhập sẽ xuất hiện panel info của acc và dãy Menu bên trái, click chọn như hình 4/ Nhập số điểm cần đổi vào, điền mã captcha (nếu có) 5/ Đến bước này rồi thì tận hưởng max speed của acc VIP thôi nào!
  18. Audio Format : AC-3 Format/Info : Audio Coding 3 Mode extension : CM (complete main) Duration : 2h 18mn Bit rate mode : Constant Bit rate : 640 Kbps Channel(s) : 6 channels Channel positions : Front: L C R, Side: L R, LFE Sampling rate : 48.0 KHz Bit depth : 16 bits Compression mode : Lossy Stream size : 633 MiB (100%) Hidden Content http://www.fshare.vn/folder/TABWN2R93T
  19. Audio Format : AC-3 Format/Info : Audio Coding 3 Mode extension : CM (complete main) Duration : 1h 49mn Bit rate mode : Constant Bit rate : 640 Kbps Channel(s) : 6 channels Channel positions : Front: L C R, Side: L R, LFE Sampling rate : 48.0 KHz Bit depth : 16 bits Compression mode : Lossy Stream size : 499 MiB (100%) Title : Sync by Hunggy Hidden Contenthttp://www.fshare.vn/file/T849J71YQT PS: Anh em share nơi khác vui lòng ghi rõ nguồn. Thanks
  20. Audio Format : AC-3 Format/Info : Audio Coding 3 Mode extension : CM (complete main) Duration : 2h 20mn Bit rate mode : Constant Bit rate : 640 Kbps Channel(s) : 6 channels Channel positions : Front: L C R, Side: L R, LFE Sampling rate : 48.0 KHz Bit depth : 16 bits Compression mode : Lossy Stream size : 641 MiB (100%) Title : Sync by Hunggy Hidden Contenthttp://www.fshare.vn/folder/TG7HA8QPMT PS: Anh em share nơi khác vui lòng ghi rõ nguồn. Thanks
  21. Audio ID : 1 Format : AC-3 Format/Info : Audio Coding 3 Mode extension : CM (complete main) Codec ID : A_AC3 Duration : 1h 25mn Bit rate mode : Constant Bit rate : 640 Kbps Channel(s) : 6 channels Channel positions : Front: L C R, Side: L R, LFE Sampling rate : 48.0 KHz Bit depth : 16 bits Compression mode : Lossy Stream size : 390 MiB (100%) Title : Sync by Hunggy Language : English Hidden Contenthttp://www.fshare.vn/file/TP6X99D6YT PS: Anh em share nơi khác vui lòng ghi rõ nguồn. Thanks
  22. Audio Format : AC-3 Format/Info : Audio Coding 3 Mode extension : CM (complete main) Duration : 1h 37mn Bit rate mode : Constant Bit rate : 640 Kbps Channel(s) : 6 channels Channel positions : Front: L C R, Side: L R, LFE Sampling rate : 48.0 KHz Bit depth : 16 bits Compression mode : Lossy Stream size : 448 MiB (100%) Hidden Content http://www.fshare.vn/file/TJYVG6G3WT
  23. Audio ID : 1 Format : AC-3 Format/Info : Audio Coding 3 Mode extension : CM (complete main) Codec ID : A_AC3 Duration : 1h 48mn Bit rate mode : Constant Bit rate : 448 Kbps Channel(s) : 6 channels Channel positions : Front: L C R, Side: L R, LFE Sampling rate : 48.0 KHz Bit depth : 16 bits Compression mode : Lossy Stream size : 346 MiB (100%) Title : Sync by Hunggy Hidden Contenthttp://www.fshare.vn/file/THPG0MCACT PS: Anh em share nơi khác vui lòng ghi rõ nguồn. Thanks
  24. Audio Format : AC-3 Format/Info : Audio Coding 3 Mode extension : CM (complete main) Duration : 2h 29mn Bit rate mode : Constant Bit rate : 640 Kbps Channel(s) : 6 channels Channel positions : Front: L C R, Side: L R, LFE Sampling rate : 48.0 KHz Bit depth : 16 bits Compression mode : Lossy Stream size : 685 MiB (100%) Title : Sync by Hunggy Hidden Contenthttp://www.fshare.vn/folder/T7A8A7F54T PS: Anh em share nơi khác vui lòng ghi rõ nguồn. Thanks
  25. Audio Format : AC-3 Format/Info : Audio Coding 3 Mode extension : CM (complete main) Duration : 1h 45mn Bit rate mode : Constant Bit rate : 640 Kbps Channel(s) : 6 channels Channel positions : Front: L C R, Side: L R, LFE Sampling rate : 48.0 KHz Bit depth : 16 bits Compression mode : Lossy Stream size : 484 MiB (100%) Hidden Content http://www.fshare.vn/file/TV0BT5DP0T
×
×
  • Create New...